#TITLE:4Y;
#SUBTITLE:;
#ARTIST:Infinity;
#TITLETRANSLIT:;
#SUBTITLETRANSLIT:;
#ARTISTTRANSLIT:;
#CREDIT:;
#BANNER:4Y-banner.png;
#BACKGROUND:4Y-bg.png;
#LYRICSPATH:;
#CDTITLE:;
#MUSIC:4Y.mp3;
#MUSICLENGTH:83.147;
#OFFSET:-0.080;
#SAMPLESTART:27.545;
#SAMPLELENGTH:12.000;
#SELECTABLE:YES;
#BPMS:0.000=66.320,49.000=132.640,99.000=66.320;
#STOPS:32.000=6.320
,81.000=0.880
;
#BGCHANGES:;
#FIRSTBEAT:8.000;

#LASTBEAT:108.000;

#SONGFILENAME:Songs/ERICth MIX 2nd Style/4Y/4y.sm;

#HASMUSIC:1;

#HASBANNER:1;


//---------------dance-single - MANIAC----------------
#NOTES:
     dance-single:
     MANIAC:
     hard:
     9:
     0.448,0.503,0.385,0.084,0.409,222.000,32.000,7.000,0.000,0.000:

0000
0000
0000
0000
,
0000
0000
0000
0000
,
0010
1000
0100
0000
0010
0001
0100
0000
0010
1000
0100
0010
0001
0100
0010
0000
,
1000
0001
0100
0000
0001
1000
0100
0000
0001
1000
0001
1000
0100
0010
0100
0000
,
1000
0100
1000
0100
0001
0010
0001
0010
,
0110
0100
0101
0001
0011
0001
1001
1000
1100
0100
0110
0100
0110
0000
0000
0000
,
1000
0100
0010
0100
1000
0010
0001
0010
1000
0100
0001
0100
1000
0100
1000
0100
,
0010
0001
0010
0001
1000
0100
0010
0001
1000
0010
0001
0100
0100
0000
0000
0000
,
1001
0000
0000
0000
1000
0001
1000
0001
0100
0010
0100
0010
1001
0000
0000
0000
,
1000
1000
1000
0001
0001
0001
0100
0100
0100
0000
0000
0000
1001
1001
1001
0000
,
0110
1000
0100
0000
0110
0001
0100
0000
1000
0100
1000
0000
0001
0100
0001
0000
,
1000
0010
0001
0010
1000
0100
1000
0100
0000
0100
1000
0001
0010
0100
0000
0100
,
1001
0010
0000
0001
1000
0000
0000
0000
0001
0000
0000
0000
0100
0000
0000
0000
,
0010
0000
0100
1000
0001
1000
0000
1000
,
0010
0000
0010
0000
0001
0000
1000
0100
,
0010
0000
1000
0100
0010
0100
1000
0001
,
1000
0001
0100
0001
0010
0000
0010
0001
,
0000
1000
0000
0010
0000
0010
0100
0000
,
1001
0000
0011
0000
1100
0000
0011
1100
,
0011
0000
0000
0000
1000
0001
1000
0001
1000
0001
1000
0000
0000
0000
1000
0000
,
0001
0000
0220
0000
0330
0000
1000
0100
,
0001
0020
0030
0000
0110
0000
0001
0100
,
1000
0010
0001
0000
0110
0000
0110
0110
,
0110
0000
0000
0000
0010
1000
0100
1000
0010
0000
0000
0000
0001
0000
1000
0000
,
0100
0000
0000
0000
1000
0000
0010
0000
0001
0000
0000
0000
1000
0100
1000
0020
,
0000
0000
0031
0100
1000
0200
0000
0000
0300
0000
1100
1000
1000
1000
1001
0001
,
0001
0001
0011
0010
0010
0010
0110
0000
0000
0000
0220
0000
0000
0000
0000
0000
,
0330
0000
0000
0000;

//---------------dance-single - ANOTHER----------------
#NOTES:
     dance-single:
     ANOTHER:
     medium:
     5:
     0.241,0.240,0.084,0.060,0.000,128.000,7.000,5.000,0.000,0.000:

0000
0000
0000
0000
,
0000
0000
0000
0000
,
1000
0000
0001
1000
0001
0000
0010
0100
,
0010
0000
0010
0000
1000
0001
1000
0000
,
0100
0000
1000
0000
0001
0000
1000
0100
,
0010
0000
0001
1000
0010
0100
0010
0100
,
0001
0000
1000
0000
0001
0000
1000
0100
,
0010
0000
0001
0100
0010
0000
1000
0001
,
0110
0000
0110
0000
1001
0000
0010
0100
,
0010
1000
0001
0000
0010
0100
0001
0000
,
0100
0100
0100
0000
0010
0000
0010
0000
,
0000
0010
0100
0000
1000
0000
0001
1000
,
0001
0010
1000
0000
0100
0000
1000
0000
,
0010
1000
0001
0000
1000
0000
0100
0000
,
1000
0010
1000
0010
1000
0000
0001
0000
,
1000
0100
0100
0110
,
1001
0000
0100
0000
1000
0000
0001
0100
,
0010
0000
0000
0000
0010
0000
1000
0001
,
0100
0020
0030
0010
,
0010
0000
0010
0000
0100
1000
0001
1000
,
0100
2002
3003
0100
,
1000
0000
0010
0000
1000
0000
0001
1000
,
0010
0000
2000
0000
3002
0000
0103
0010
,
0000
0000
0001
0000
1000
0010
0100
0010
,
0001
0000
1000
0000
0100
0000
1000
1000
,
0100
0010
1000
0100
1000
0001
0000
0010
,
0000
0100
0010
1000
0001
0110
0000
0000;

//---------------dance-single - BASIC----------------
#NOTES:
     dance-single:
     BASIC:
     easy:
     4:
     0.174,0.226,0.036,0.012,0.000,97.000,3.000,1.000,0.000,0.000:

0000
0000
0000
0000
,
0000
0000
0000
0000
,
0001
0001
0010
0100
,
0001
0010
0010
1000
,
1000
1000
0100
0010
,
0110
1000
0001
0100
,
0010
0000
0010
0000
,
0001
1000
0100
0100
,
0110
1000
0001
0010
,
1000
0100
1000
0010
,
0001
0000
1000
0000
,
0001
1001
0010
0100
,
0010
0100
0001
1000
,
0100
1000
0010
1000
,
1000
0001
0100
0000
,
0001
1000
0001
0000
,
0010
1000
0001
0100
,
0010
0000
0010
0010
,
0010
1000
0001
0100
,
0010
0100
0001
1000
,
0001
1000
0000
0100
,
0000
1000
0001
0100
,
0000
0100
1000
0001
,
0100
0010
1000
0010
,
0010
0000
1000
0000
0001
0000
0100
0010
,
1000
0001
0100
0010
0010
1000
0001
0100
,
0010
1000
0100
0010
0001
2000
0000
3000;
